#TITLE:Da Shit (Eastwood Jacks Red);
#SUBTITLE:- Anime Music Video;
#ARTIST:Agemixer;
#TITLETRANSLIT:;
#SUBTITLETRANSLIT:;
#ARTISTTRANSLIT:;
#CREDIT:Kreton;
#BANNER:Da Shit (Eastwood Jacks Red).png;
#BACKGROUND:Da Shit (Eastwood Jacks Red)-bg.png;
#LYRICSPATH:Da Shit (Eastwood Jacks Red).lrc;
#CDTITLE:CDTitle.png;
#MUSIC:Da Shit (Eastwood Jacks Red).ogg;
#OFFSET:0.780;
#SAMPLESTART:69.000;
#SAMPLELENGTH:11.940;
#SELECTABLE:YES;
#BPMS:0.000=125.280;
#STOPS:26.000=1.440
,149.000=0.240
,156.500=0.240
,164.000=0.240
,243.500=0.240
,251.000=0.240
,258.500=0.240
;
#BGCHANGES:0.000=Da Shit (Eastwood Jacks Red).avi=1.000=0=0=1,
272.000=Da Shit (Eastwood Jack Red)-bg.png=1.000=1=0=1,
99999=-nosongbg-=1.000=0=0=0 // don't automatically add -songbackground-
;
// cache tags:
#FIRSTBEAT:2.000;
#LASTBEAT:267.000;
#SONGFILENAME:songs/Otaku's Dream 3rd Anime Mix/[Kreton] Da Shit (Eastwood Jacks Red) - AMV/Da Shit (Eastwood Jacks Red).sm;
#HASMUSIC:1;
#HASBANNER:1;
#MUSICLENGTH:132.179;
// end cache tags

//---------------dance-single - Kreton----------------
#NOTES:
     dance-single:
     Kreton:
     Hard:
     8:
     0.514,0.682,0.197,0.045,0.185,444.000,26.000,6.000,0.000,0.000:
0000
0000
1001
0100
,
0010
0100
0010
0100
,
0001
0010
0001
0100
1001
0000
0100
0000
,
0010
1000
0001
0100
,
0010
0100
1001
0100
,
0010
1000
0001
0010
,
0100
0010
0100
1000
0110
0000
0000
0000
,
0000
0000
1001
1000
,
0001
1000
0001
1000
,
0001
0000
1000
0010
0001
0000
1000
0000
,
0100
1000
0001
0010
,
0001
0000
1000
0010
0100
0000
0100
0100
,
0010
0010
0100
0100
0000
0010
0000
0100
,
0000
0001
1000
0001
1000
0001
0100
0010
,
0100
0010
0100
0010
0000
0100
0000
0010
,
0000
1000
0001
1000
0010
1000
0100
1000
,
0010
1000
0001
1000
0000
0001
0000
0010
,
0000
1000
0100
1000
0100
1000
0001
0010
,
0001
0010
0001
0010
0000
0010
0000
0100
,
0000
1000
0001
1000
0001
1000
0001
0100
,
0010
0100
0010
0100
0000
1001
0000
0110
,
0000
0100
0001
0100
1000
0100
0001
0100
,
1000
0100
0001
0000
1000
0000
0000
0000
,
0000
2002
0000
0003
0100
3000
0100
0001
,
1000
0100
0010
1000
0001
0000
0010
0000
,
0010
0000
0000
0000
0010
1000
0001
0000
0010
1000
0001
0000
0100
0000
1000
0000
,
0010
0001
0100
0010
1000
0100
0001
0000
,
0100
0000
0000
0000
0010
0100
0010
0000
0100
0010
0100
0000
1000
0000
0001
0000
,
0010
1000
0100
0010
0001
0000
0010
0000
,
0100
0000
0000
0000
1000
0001
0010
0000
1000
0001
0100
0000
0010
0000
1000
0000
,
0100
0001
1000
0100
0001
0000
0010
0000
,
0100
1000
0100
1000
0100
0000
0100
0000
1000
0000
0000
0000
0001
0000
0000
0000
,
1000
0001
1000
0010
,
0100
0000
0010
1000
0100
0000
1000
0000
,
0001
1000
0001
0100
,
0010
0000
0100
1000
0010
0000
1000
0001
,
1000
0010
1000
0001
1000
0100
1000
0001
,
1000
0000
0110
0110
0000
0001
1000
0001
,
0100
0001
1000
0001
0010
0001
1000
0001
,
0000
1001
1001
0000
0100
0001
0100
1000
,
0100
0001
0100
1000
0100
0001
0100
0000
,
0110
1001
0000
0100
0010
0100
0010
0100
,
0010
0000
0100
0000
1000
0000
0001
0000
1000
0001
1000
0001
1000
0000
0100
0000
,
0010
0000
0100
0000
0000
0000
0001
1000
0001
1000
0001
1000
0001
1000
0001
1000
,
0001
0000
0000
0000
1000
0010
1000
0010
1000
0010
1000
0010
1000
0010
1000
0010
,
1000
0000
0000
0000
0001
0100
0001
0100
0001
0100
0001
0100
0001
0100
0001
0100
,
0001
0000
0000
0000
1000
0100
1000
0100
1000
0100
1000
0100
1000
0000
0001
0000
,
1000
0000
0001
0000
1000
0000
1000
0001
1000
0001
1000
0001
1000
0001
1000
0001
,
1000
0000
0000
0000
0001
0100
0001
0100
0001
0100
0001
0100
0001
0100
0001
0100
,
0001
0000
0000
0000
1000
0010
1000
0010
1000
0010
1000
0010
1000
0010
1000
0010
,
1000
0000
0001
0000
0000
1000
2002
0000
,
3003
0220
0330
1001
0000
0100
0000
0010
,
1000
0100
0000
0001
0000
1000
0000
0010
,
0100
1000
0000
0001
0000
0100
0000
0001
,
0010
0100
0000
0010
0000
0100
0000
0001
,
1000
0001
1000
0010
0000
0100
0000
0010
,
0000
0100
0001
0010
0000
1000
0000
0001
,
0000
1000
0100
0010
0000
0001
0000
0010
,
0000
0100
0010
1000
0000
0100
0000
0001
,
1000
0001
1000
0010
1000
0010
0001
0010
,
1000
0010
0001
0010
1000
0010
0000
0110
,
1001
0000
0100
0001
0100
0010
0100
0001
,
0100
0010
0100
0001
0100
0000
0110
1001
,
0000
0001
0010
0001
0100
0001
0010
0001
,
0100
0001
0010
0001
0000
0101
1010
0000
,
0100
0001
0010
0001
1000
0001
0100
0001
,
1000
0000
0001
1000
0100
0000
0010
0000
0110
0000
1001
0000
0110
0000
0000
0000
;

//---------------dance-single - Kreton----------------
#NOTES:
     dance-single:
     Kreton:
     Medium:
     6:
     0.440,0.429,0.204,0.000,0.000,380.000,27.000,0.000,0.000,0.000:
0000
0000
0110
1000
,
0001
1000
0001
1000
,
0001
0010
0001
0010
0011
0000
1000
0000
,
0100
0010
0001
0010
,
0100
1000
1001
1000
,
0100
1000
0001
0010
,
0001
0010
0001
0010
0011
0000
0000
0000
,
0000
0000
0110
1000
,
0100
0010
0001
0010
,
0100
1000
0100
1000
,
0100
1000
0001
0010
,
0001
0000
0010
0000
0001
0000
1000
0001
,
1000
0001
1000
0001
0000
0110
0000
1001
,
0000
0100
1000
0100
1000
0100
0001
0010
,
0001
0010
0001
0010
0000
1001
0000
0110
,
0000
0100
0010
0100
0010
0100
1000
0001
,
1000
0001
1000
0001
0000
0011
0000
1100
,
0000
0001
0100
0001
0100
0001
1000
0010
,
1000
0010
1000
0010
0000
1010
0000
0101
,
0000
1000
0001
1000
0001
1000
0001
0100
,
0010
0100
0010
0100
0000
1001
0000
0110
,
0000
1000
0001
1000
0001
0100
0010
0100
,
0010
0100
0000
0000
1001
0000
0000
0000
,
0000
1001
0000
0000
0110
0000
1000
0100
,
0010
0001
1000
0100
0010
0000
0001
0000
,
0001
0000
0100
0100
0010
0010
0001
0010
,
0100
1000
0001
0010
0100
0000
1000
0000
,
1000
0000
0010
0010
0100
0100
0010
0100
,
0010
0100
0010
0100
0001
0000
0010
0000
,
0100
0000
0110
0110
1001
1000
1000
0100
,
0100
0010
0010
0001
0001
0000
0010
0000
,
0100
0010
0100
0010
1000
0000
0100
0000
,
1000
0100
1000
0001
,
0010
0001
0010
0001
,
0010
0100
0010
0100
,
0010
0000
0100
0000
0010
0000
0001
0010
,
0001
0010
0001
0010
0001
0010
0001
0010
,
0001
0000
0010
0100
0000
1000
0100
1000
,
0100
1000
0100
1000
0100
1000
0100
1000
,
0000
0001
1000
0000
0010
0100
0010
0100
,
0010
0100
0010
0100
0010
0100
0010
0000
,
0010
1000
0000
0100
0010
0100
0010
0100
,
0010
0100
1000
0001
0100
0010
0100
0010
,
1000
0001
0000
1000
0100
1000
0010
1000
,
0100
0000
0001
0010
0001
0100
0001
0010
,
0000
0000
1000
0010
1000
0100
1000
0010
,
1000
0000
0010
0100
0010
0100
0010
1000
,
0001
1000
0010
0100
0010
0001
0010
0100
,
0010
0000
1000
0010
1000
0010
1000
0010
,
0000
0000
0001
0100
0001
0100
0001
0100
,
0001
0100
0000
0110
,
0000
0110
0000
1001
0000
1000
0000
0100
,
0000
0010
0000
0001
0000
1000
0000
0100
,
0000
0010
0000
0001
0000
1000
0000
0100
,
0000
0010
0000
0001
0000
1000
0000
0100
,
0010
0100
0010
0001
0000
0010
0000
0100
,
0000
1000
0000
0001
0000
0010
0000
0100
,
0000
1000
0000
0001
0000
0010
0000
0100
,
0000
1000
0000
0001
0000
0010
0000
0100
,
0010
0100
0010
1000
0001
1000
0001
1000
,
0001
1000
0001
1000
0001
1000
0000
0100
,
0001
0000
0001
1000
0001
1000
0001
1000
,
0001
1000
0001
1000
0001
0000
0010
0100
,
0000
0100
0010
0100
0010
0100
0010
0100
,
0010
0100
0010
0100
0000
0100
0010
0000
,
1000
0100
0010
0001
1000
0100
0010
0001
,
0010
0100
0010
0100
1001
1001
1001
0000
;

//---------------dance-single - Kreton----------------
#NOTES:
     dance-single:
     Kreton:
     Easy:
     3:
     0.327,0.328,0.204,0.053,0.000,269.000,27.000,7.000,0.000,0.000:
0000
0000
1001
0100
,
0010
0100
0010
0100
,
0001
1000
0110
1000
,
0100
1000
0100
1000
,
0100
1000
1001
0010
,
0100
0010
0100
0010
,
1000
0100
0110
0000
,
0000
0000
1001
0100
,
0001
0010
1000
0010
,
0001
0100
0001
0100
,
0001
0100
1000
0010
,
1000
0010
0001
0100
,
0010
0000
0100
0000
0000
0110
0000
0110
,
0000
0100
0010
1000
,
0100
0000
1000
0000
0000
1001
0000
1001
,
0000
0010
0100
0001
,
0010
0000
0001
0000
0000
1010
0000
1010
,
0000
0001
1000
0100
,
0010
0000
0100
0000
0000
0011
0000
0011
,
0000
1000
0001
0010
,
0100
0000
0010
0000
0000
1100
0000
1100
,
0000
0100
0010
0100
,
0010
0000
0110
0000
,
0000
0110
0000
0000
0100
0000
0010
0000
,
0100
0010
0100
1000
,
0001
0000
1000
0001
1000
0001
0010
0000
,
0100
0001
1000
0010
,
1000
0000
0001
1000
0001
1000
0100
0000
,
0010
0100
0001
0010
,
0001
0000
0100
0010
0100
0010
1000
0000
,
0001
1000
0001
0010
,
0010
0100
0010
0100
0001
0000
0010
0000
,
0001
0010
0001
1000
,
0100
1000
0100
1000
,
0100
0010
0100
0010
,
0100
0010
0100
0001
,
0100
0001
0100
0001
,
0100
0000
0010
0100
0000
1000
0000
0010
,
0000
1000
0000
0010
0000
1000
0000
0010
,
0000
0001
1000
0000
0010
0000
0100
0000
,
0010
0100
0010
0100
,
0010
0100
0000
1000
0000
0010
0000
0001
,
0000
0100
0000
0010
0000
0100
0000
0010
,
0000
0100
0000
1002
0000
1000
0000
1000
,
0000
1003
0000
2001
0000
0001
0000
0001
,
0000
3001
0000
0120
0000
0100
0000
0130
,
0000
0210
0000
0010
0000
0310
0000
0000
,
0010
0010
0210
0010
,
0310
1002
1000
1000
,
1003
2001
0001
0001
,
3001
0100
0000
0110
,
0000
0110
0000
1001
0000
1000
0000
0100
,
0000
0010
0000
0001
0000
1000
0000
0100
,
0000
0010
0000
0001
0000
1000
0000
0100
,
0000
0010
0000
0001
0000
1000
0000
0100
,
0010
0100
0010
0001
0000
0010
0000
0100
,
0000
1000
0000
0001
0000
0010
0000
0100
,
0000
1000
0000
0001
0000
0010
0000
0100
,
0000
1000
0000
0001
0000
0010
0000
1000
,
0001
1000
0001
0100
0000
0010
0000
0100
,
0000
0010
0000
0100
0000
0010
0000
0100
,
0001
1000
0001
1000
,
0001
0000
1000
0000
0001
0000
0010
0100
,
0000
0001
0000
0100
0000
0001
0000
0100
,
0000
0001
0000
0100
0000
0100
0010
0000
,
0100
0010
0100
0010
,
0100
0000
0010
0000
1000
0001
1000
0000
;

//---------------dance-single - Kreton----------------
#NOTES:
     dance-single:
     Kreton:
     Beginner:
     1:
     0.078,0.075,0.023,0.008,0.000,68.000,3.000,1.000,0.000,0.000:
0000
0000
1000
0000
,
0000
0000
0100
0000
,
0000
0000
1001
0000
,
0000
0000
0010
0000
,
0000
0000
1001
0000
,
0000
0000
0100
0000
,
0000
0000
1001
0000
,
0000
0000
1000
0000
,
0000
0000
0001
0000
,
0000
0000
0100
0000
,
0000
0000
0010
0000
,
0000
0000
1000
0000
,
0000
0000
0001
0000
,
0000
0000
0100
0000
,
0000
0000
0010
0000
,
0000
0000
1000
0000
,
0000
0000
0001
0000
,
0000
0000
0100
0000
,
0000
0000
0010
0000
,
0000
0000
0100
0000
,
0000
0000
0001
0000
,
0000
0000
1000
0000
,
0000
0000
0100
0000
,
0000
2000
0000
0000
0000
3000
0000
0000
,
0000
0000
1000
0000
,
0000
0000
0010
0000
,
0000
0000
0100
0000
,
0000
0000
0001
0000
,
0000
0000
0100
0000
,
0000
0000
1000
0000
,
0000
0000
0001
0000
,
0000
0000
0100
0000
,
0000
0000
0001
0000
,
0000
0000
0010
0000
,
0000
0000
1000
0000
,
0000
0000
0010
0000
,
0000
0000
1000
0000
,
0000
0010
0000
0000
,
0000
0100
0000
0000
0000
0000
0000
0000
,
0000
0010
0000
0000
0000
0000
0000
0000
,
0100
0000
0000
0000
,
0010
0000
0000
0000
,
0100
0000
0000
0000
,
0100
0000
0000
0000
,
0010
0000
0000
0000
,
1000
0000
0000
0000
,
0001
0000
0000
0000
,
1000
0000
0000
0000
,
0010
0000
0000
0000
,
0100
0000
0000
0000
,
0001
0000
0000
0000
,
1000
0000
0000
0000
,
0100
0000
0000
0000
,
0010
0000
0000
0000
,
0001
0000
0000
0000
,
0100
0000
0000
0000
,
1000
0000
0000
0000
,
0010
0000
0000
0000
,
0100
0000
0000
0000
,
0001
0000
0000
0000
,
1000
0000
0000
0000
0000
0000
0000
0100
,
0000
0000
0000
0100
,
0000
0000
0000
0010
,
0000
0000
0000
0000
0000
0100
0000
0000
,
0000
0000
0000
0000
0000
0001
0000
0000
,
0000
0000
0100
0000
,
0000
0000
0100
0000
;

//---------------dance-single - Lisek----------------
#NOTES:
     dance-single:
     Lisek:
     Edit:
     10:
     0.747,0.833,0.371,0.295,0.533,603.000,49.000,39.000,0.000,10.000:
0000
0000
1001
1100
,
0011
1100
0011
1100
,
0001
0000
0000
0000
0000
0000
0000
0000
0000
0000
0000
0000
0000
0000
0000
0000
0010
0000
0000
0000
0000
0000
0000
0000
0000
0000
0000
0000
0000
0000
0000
0000
0100
0000
0000
0000
0000
0000
0000
0000
0000
0000
0000
0000
0000
0000
0000
0000
0001
0000
0000
0000
0000
0000
0000
0000
0000
0000
0000
0000
0000
0000
0000
0000
0000
0000
0000
0000
0000
0000
0000
0000
0000
0000
0000
0000
0000
0000
0000
0000
0000
0000
0000
0000
0000
0000
0000
0000
0000
0000
0000
0000
0000
0000
0000
0000
2002
0000
0000
3003
0000
0000
0000
0000
0000
0000
0000
0000
0000
0000
0000
0000
0000
0000
0000
0000
0000
0000
0000
0000
0000
0000
0000
0000
0000
0000
0000
0000
0000
0000
0000
0000
0000
0000
0000
0000
0000
0000
0000
0000
0000
0000
0000
0000
0101
0000
0000
0000
0000
0000
0000
0000
0000
0000
0000
0000
0000
0000
0000
0000
0000
0000
0000
0000
0000
0000
0000
0000
0000
0000
0000
0000
0000
0000
0000
0000
0000
0000
0000
0000
0000
0000
0000
0000
0000
0000
0000
0000
0000
0000
0000
0000
,
1010
1001
0011
1100
,
0110
0000
0000
0000
0000
0000
0000
0000
0000
0000
0000
0000
0000
0000
0000
0000
0101
0000
0000
0000
0000
0000
0000
0000
0000
0000
0000
0000
0000
0000
0000
0000
2002
3003
0000
0000
0000
0000
0000
0000
0000
0000
0000
0000
0000
0000
0000
0000
0110
0000
0000
0000
0000
0000
0000
0000
0000
0000
0000
0000
0000
0000
0000
0000
,
0011
1001
0101
1010
,
0100
0010
0001
0100
0000
0000
0220
0000
0000
0000
0000
0000
,
0000
0000
0000
0000
1331
0000
1000
0100
,
0001
0010
1000
0100
0001
0010
1000
0100
,
0001
0000
0010
0000
1000
0100
0010
0001
0010
0000
1000
0000
1000
0000
0010
0000
,
0100
0010
1000
0100
0001
2000
0010
3200
,
0001
0000
0300
0000
1000
0100
0010
0001
0100
0000
0000
0000
0100
0000
0100
0000
,
0010
0010
0100
0100
0001
0020
1000
0230
,
1000
0000
0301
0000
1000
0100
0010
0001
1000
0000
0001
0000
0100
0000
0010
0000
,
0100
0010
0100
0010
1000
0200
0001
0320
,
1000
0000
1030
0100
0010
0001
1000
0000
0010
0000
1000
0000
0100
0000
1000
0000
,
0010
1000
0001
1000
0010
0002
1000
0023
,
0100
0000
1030
0100
0010
0001
1000
0000
0100
0000
1000
0000
0001
0000
0010
0000
,
0001
0010
0001
0010
1000
0020
0001
0230
,
0001
0000
1300
0100
0010
0001
1000
0000
0001
0000
1000
0000
0001
0000
0100
0000
,
0010
0100
0010
0100
0000
2002
0100
3023
,
0100
0000
1030
0100
0010
0001
0100
0000
1000
0000
0100
0000
0001
0000
0100
0000
,
1000
0000
0000
0100
0000
0000
0002
0000
0000
0010
0000
0000
1003
0000
0100
0000
0010
0000
0100
0000
1000
0000
0001
0000
,
0010
2002
0000
0000
0100
3003
0100
0001
,
1000
0100
0010
1000
0001
0000
1010
0000
,
0110
0000
0000
0000
0010
1000
0001
0000
0010
1000
0001
0000
0100
0000
1000
0000
,
0010
0001
0100
0010
1000
0100
1001
0000
,
0110
0000
0000
0000
0010
0100
0010
0000
0100
0010
0100
0000
1000
0000
0001
0000
,
0010
1000
0100
0010
0001
0000
0010
0000
,
0100
0000
0000
0000
1000
0001
0010
0000
1000
0001
0100
0000
0010
0000
1000
0000
,
0100
0001
1000
0100
0001
0000
0010
0000
,
0100
1000
0100
1000
0100
0000
0100
0000
1000
0000
0000
0000
0001
0000
0010
0000
,
1000
0100
0001
0010
1000
0100
0010
0001
,
0100
1000
0010
1000
0100
0000
1000
0010
,
0001
0100
1000
0010
0001
1000
0100
0001
,
0010
1000
0100
1000
0010
0000
1000
0001
,
1000
0010
1000
0001
1000
0100
1000
0001
,
1000
0000
2002
0110
3003
0001
1000
0001
,
0100
0001
1000
0001
0010
0001
1000
0001
,
0000
2002
0110
3003
0100
0001
0100
1000
,
0100
0001
0100
1000
0100
0001
0100
0000
,
0220
1001
0330
0100
0010
0100
0010
0100
,
0010
0000
0100
0000
1000
0000
0001
0000
1000
0001
1000
0001
1000
0000
0100
0000
,
0010
0000
0100
0000
0000
0000
0001
1000
0001
1000
0001
1000
0001
1000
0001
1000
,
0001
0010
0100
0010
1000
0010
1000
0010
1000
0010
1000
0010
1000
0010
1000
0010
,
1000
0100
0010
0100
0001
0100
0001
0100
0001
0100
0001
0100
0001
0100
0001
0100
,
0001
0010
0100
0010
1000
0100
1000
0100
1000
0100
1000
0100
1000
0000
0011
0000
,
1100
0000
0011
0000
1000
0000
1000
0001
1000
0001
1000
0001
1000
0001
1000
0001
,
1000
0010
0100
0010
0001
0100
0001
0100
0001
0100
0001
0100
0001
0100
0001
0100
,
0001
0010
0100
0010
1000
0010
1000
0010
1000
0010
1000
0010
1000
0010
1000
0010
,
1000
0000
0021
0000
0000
0130
2002
0000
,
3003
0000
0220
0000
0330
0000
0100
0010
0100
0010
0100
0010
0100
0010
0100
0010
,
0100
0010
0001
0010
1000
0100
1000
0100
1000
0100
1000
0100
1000
0100
1000
0100
,
1000
0010
0001
0010
0100
1000
0100
1000
0100
1000
0100
1000
0100
1000
0100
1000
,
0100
1000
0100
0010
1000
0010
0100
0001
0100
0001
0100
0001
0100
0001
0100
0001
,
0100
0001
0100
0010
1000
0010
0100
0001
0100
0001
0100
0001
0100
0001
0100
0001
,
0100
0001
1000
0100
0001
0010
0100
0010
0100
0010
0100
0010
0100
0010
0100
0010
,
0100
0001
1000
0100
0010
0001
0010
0001
0010
0001
0010
0001
0010
0001
0010
0001
,
0010
0100
0010
0100
1000
0100
1000
0100
1000
0100
1000
0100
1000
0100
1000
0000
,
0100
0001
1000
0001
1000
0010
1000
0010
,
0001
0010
1000
0010
0001
0010
1000
2002
,
0110
3003
1000
0010
0100
0001
0100
0010
,
0100
0001
0100
0010
0100
0001
2002
0110
,
3003
0001
0010
0001
0010
0001
0100
0001
,
0010
0001
0100
0001
0010
2002
0110
3003
,
0010
1000
0100
0001
0010
0001
1000
0001
,
0100
0000
0001
0000
1000
0010
0001
0000
0110
0000
1001
0000
0110
0000
0000
0000
;
